آوا دانلود

دانلود فیلم Wonder Woman 2017 4K UltraHD BluRay 2160p

آخرین مطالب سایت latest content
فیلم خارجـی سریال خارجـی برترین فیلم ها



- - - - - - - - - - - - - - - - - - - - - - - -



Wonder Woman 2017 4K UltraHD BluRay 2160p

دسته بندی : UltraHD ، اکشن ، فانتزی ، ماجراجویی تاریخ : دوشنبه 29 ژانویه 2018

 

Wonder Woman (2017) BluRay 4K UHD 2160p x264

دانلود فیلم جدید Wonder Woman 2017 با کیفیت 4K

| نسخه اصلی x265 HEVC بزودی… |

Wonder Woman 2017 4K UltraHD BluRay 2160p x264 TrueHD 7.1-POOP

 

Wonder Woman 4k poster

 

نام فیلم: زن شگفت‌انگیز – Wonder Woman

ژانر: اکشن ، ماجراجویی ، فانتزی

مدت زمان: 141 دقیقه

حجم: 12.5 گیگابایت

كيفيت: 4K UHD 2160p x264 (compressed)

زبان: انگلیسی

زیرنویس فارسی: دارد

کارگردان: Patty Jenkins

بازیگران: Gal Gadot, Robin Wright, Connie Nielsen

IMDB : N/A از 10 | تعداد آرا: N/A کاربر

خلاصه داستان: زن شگفت‌ انگیز (Wonder Woman) یک فیلم به کارگردانی پتی جنکینس (کارگردان فیلم هیولا) است که در اواخر بهار امسال اکران خواهد شد. همانطور که از نام فیلم پیداست، داستان در مورد یکی از شخصیت های زن دنیای کمیک یعنی “زن شگفت انگیز” می باشد که اولین بار در شمارهٔ ۸ مجموعه کمیک All Star Comics (دسامبر ۱۹۴۱) معرفی شد. این شخصیت برای اولین بار در فیلم بتمن علیه سوپرمن با بازی گل گدوت در نقش پرنسس دایانا / زن شگفت‌انگیز حضور یافت که حال این فیلم به صورت کامل شخصیت واندر وومن را به تصویر خواهد کشید. قبل از اینکه او زن شگفت انگیز شده باشد، پرنسس دایانا از قبیله ی آمازون ها بود. دایانا برای تبدیل شدن به یک جنگجو شکست ناپذیر سخت تلاش کرده بود . خلبانی آمریکایی در شهر آن ها سقوط می کند و خبر از جنگی عظیم در دنیا می دهد. دایانا برای متوقف کردن این تهدید قصر را ترک می کند و پا به پای مردان در میدان نبرد می جنگد تا به آن خاتمه دهد. به تدریج دایانا متوجه قدرت های شگفت انگیز و هویت اصلی خود می شود. از سایر بازیگران فیلم می توان به نام های کریس پاین، کانی نیلسن، رابین رایت، دنی هوستون، دیوید تیولیس، ایون برمنر و لوسی دیویس اشاره کرد. همچون فیلم بتمن علیه سوپرمن که بسیار ضعیف عمل کرد، منتقدین از لحاظ فروش نیز این فیلم را موفق نمی دانند و امیدی به فروش موفق آن ندارند. البته تمامی این ها حدس است و تا زمان اکران فیلم می بایست صبر کرد. زن شگفت انگیز اولین فیلم سینمایی مستقل در مورد این شخصیت دنیای کمیک می باشد. وندر ومن در فیلم های ترکیبی دی‌سی کامیکس نیز حضور خواهد داشت. برای دانلود فیلم Wonder Woman 2017 با کیفیت 4K به ادامه مطلب بروید…

 

جهت دانلود فیلم 4K و کسب اطلاعات تکمیلی فیلم، به ادامه مطلب رجوع کنید…

 

Movie1#

Video

Format/Info                    : Advanced Video Codec
Format profile                 : High@L4.1
Format settings, ReFrames      : 4 frames
Codec ID                       : V_MPEG4/ISO/AVC
Duration                       : 2 h 21 min
Bit rate                       : 7 797 kb/s
Width                          : 3 840 pixels
Height                         : 1 600 pixels
Display aspect ratio           : 2.40:1
Frame rate                     : 23.976 (24000/1001) FPS
Color space                    : YUV
Bit depth                      : 8 bits
Bits/(Pixel*Frame)             : 0.053
Stream size                    : 7.69 GiB (64%)
Writing library                : x264 core 152 r2851 ba24899

————————————–

Audio

Format                         : Atmos / TrueHD
Codec ID                       : A_TRUEHD
Duration                       : 2 h 21 min
Bit rate                       : 4 279 kb/s
Maximum bit rate               : 7 509 kb/s
Channel(s)                     : Object Based / 8 channels
Sampling rate                  :  / 48.0 kHz
Frame rate                     : 1 200.000 FPS (40 spf)
Stream size                    : 4.22 GiB (35%)
Language                       : English

 

Wonder Woman 4k Screenshot

 

_ دانلود نسخه کم حجم Dunkirk 2017 با کیفیت 4K UHD Bluray 2160p x264-poop _

 

Download Icon دانلود پارت 1: Direct Link

Download Icon دانلود پارت 2: Direct Link

Download Icon دانلود پارت 3: Direct Link

Download Icon دانلود پارت 4: Direct Link

Download Icon دانلود پارت 5: Direct Link

Download Icon دانلود پارت 6: Direct Link

Download Icon دانلود پارت 7: Direct Link

Download Icon دانلود زیرنویس فارسی

 

» دانلود نسخه های بلوری فیلم Wonder Woman 2017

 

2,071 بازدید
دیدگاه کاربران انتشار یافته : 2 نظر.
    • دیدگاه ارسال شده توسط شما ، پس از تایید توسط مدیران سایت منتشر خواهد شد.
    • دیدگاهی که به غیر از زبان فارسی یا غیر مرتبط با مطلب باشد منتشر نخواهد شد.
    • در صورت نداشتن تصویر در فیلم دانلود شده، برروی این لینک نمایید.

This site uses Akismet to reduce spam. Learn how your comment data is processed.

no any way
پنجشنبه , 15 فوریه 2018
پاسخ

چرا همه حجم ها ب یک ینک نمیزارید مثلا 20 گیگ یک لینک. ن اینکه 2 گیگ ….. دانلود کنیم .

سهراب
جمعه , 4 می 2018
پاسخ

همینجوری بذارید بهتره چون با گوشی تا ۴ گیگ بیشتر دانلود نمیشه چون fat 32هست

Ultra HD
حمایت
bachehayeaseman
مطالب محبوب
تمامی مطالب را از کانال تلگرام دنبال کنید!