دانلود فیلم Get Out 2017 4K Ultra HD BluRay REMUX 2160p

آوا دانلود

دانلود فیلم Get Out 2017 4K Ultra HD BluRay REMUX 2160p

Get Out 2017 4K Ultra HD BluRay REMUX 2160p

دسته بندی : 250 فیلم برتر ، UltraHD ، ترسناک ، کمدی ، معمایی تاریخ : دوشنبه 22 ژانویه 2018

 

Get Out (2017) REMUX BluRay 4K UHD 2160p x265 HEVC

دانلود فیلم جدید Get Out 2017 با کیفیت 4K

Get Out 2017 2160p BluRay REMUX HEVC DTS X.7.1-FGT

 

Get Out 2017 UltraHD Poster

 

نام فیلم: برو بیرون – Get Out

ژانر: کمدی | ترسناک | معمایی

مدت زمان: 104 دقیقه

حجم: 57.3 گیگابایت

كيفيت: 4K UHD 2160p x265

زبان: انگلیسی و فرانسوی

زیرنویس فارسی: دارد (+ زیرنویس انگلیسی و فرانسوی داخل فیلم)

کارگردان: Jordan Peele

بازیگران: Daniel Kaluuya, Allison Williams, Bradley Whitford

رتبه 229 در میان 250 فیلم برتر IMDB

IMDB : 5.7 از 10 | تعداد آرا: 139 کاربر

خلاصه داستان: برو بیرون Get Out فیلمی است کمدی و ترسناک به کارگردانی Jordan Peele که در اوایل سال 2017 اکران شده است. داستان در مورد جوانی دانشجو و سیاه پوست به نام کریس (دنیل کالویا) است که تصمیم میگرد آخر هفته را به دیدن خانواده ی دوسـت دخـتر خود برود. کریس از رفتارهای نژاد پرستانه ای که ممکن است خانواده ی رز (آلیسون ویلیامز) با او داشته باشند به شدت هراس دارد. همینطور که ساعت ها در حال سپری هستند، کریس حقیقت ترسناکی در مورد ساکنان سیاه پوست آن محله کشف می کند که هیچ وقت تصورش را نیز نمی کرد. قبل از این نیز شخصی سیاه پوست به کریس هشدار داده بود که “برو بیرون” اما او توجه ای نکرد و…

 

جهت دانلود فیلم و کسب اطلاعات تکمیلی فیلم، به ادامه مطلب رجوع کنید…

 

Video
Format/Info                    : High Efficiency Video Coding
Format profile                 : Main 10@L5.1@High
Codec ID                       : V_MPEGH/ISO/HEVC
Duration                       : 1 h 44 min
Bit rate                       : 67.8 Mb/s
Width                          : 3 840 pixels
Height                         : 2 160 pixels
Display aspect ratio           : 16:9
Frame rate                     : 23.976 (24000/1001) FPS
Color space                    : YUV
Bit depth                      : 10 bits
Bits/(Pixel*Frame)             : 0.341
Stream size                    : 49.3 GiB (90%)
Color range                    : Limited

—————————————–
Audio
Format/Info                    : Digital Theater Systems
Format profile                 : X / MA / Core
Mode                           : 16
Format settings, Endianness    : Big
Codec ID                       : A_DTS
Duration                       : 1 h 44 min
Bit rate                       : 5 477 kb/s / 5 477 kb/s / 1 509 kb/s
Channel(s)                     : Object Based / 8 channels / 6 channels
Sampling rate                  :  / 48.0 kHz / 48.0 kHz
Frame rate                     : 93.750 FPS (512 spf)
Bit depth                      :  / 24 bits / 24 bits
Stream size                    : 3.98 GiB (7%)

 

Get Out Cover

 

  _ دانلود فیلم جدید Get Out 2017 با کیفیت 4K UHD REMUX 2160p _

 

Download Icon دانلود پارت ۰۱: Direct Link

Download Icon دانلود پارت ۰۲: Direct Link

Download Icon دانلود پارت ۰۳: Direct Link

Download Icon دانلود پارت ۰۴: Direct Link

Download Icon دانلود پارت ۰۵: Direct Link

Download Icon دانلود پارت ۰۶: Direct Link

Download Icon دانلود پارت ۰۷: Direct Link

Download Icon دانلود پارت ۰۸: Direct Link

Download Icon دانلود پارت ۰۹: Direct Link

Download Icon دانلود پارت ۱۰: Direct Link

Download Icon دانلود پارت ۱۱: Direct Link

Download Icon دانلود پارت ۱۲: Direct Link

Download Icon دانلود پارت ۱۳: Direct Link

Download Icon دانلود پارت ۱۴: Direct Link

Download Icon دانلود پارت ۱۵: Direct Link

Download Icon دانلود پارت ۱۶: Direct Link

Download Icon دانلود پارت 17: Direct Link

Download Icon دانلود پارت 18: Direct Link

Download Icon دانلود پارت 19: Direct Link

Download Icon دانلود پارت 20: Direct Link

Download Icon دانلود پارت 21: Direct Link

Download Icon دانلود پارت 22: Direct Link

Download Icon دانلود پارت 23: Direct Link

Download Icon دانلود پارت 24: Direct Link

Download Icon دانلود پارت 25: Direct Link

Download Icon دانلود پارت 26: Direct Link

Download Icon دانلود پارت 27: Direct Link

Download Icon دانلود پارت 28: Direct Link

Download Icon دانلود پارت 29: Direct Link

Download Icon دانلود زیرنویس فارسی

 

» دانلود نسخه های بلوری فیلم Get Out 2017

 

 

345 بازدید
دیدگاه کاربران انتشار یافته : 11 نظر.
    • دیدگاه ارسال شده توسط شما ، پس از تایید توسط مدیران سایت منتشر خواهد شد.
    • دیدگاهی که به غیر از زبان فارسی یا غیر مرتبط با مطلب باشد منتشر نخواهد شد.
    • در صورت نداشتن تصویر در فیلم دانلود شده، برروی این لینک نمایید.

shamloo
دوشنبه , 22 ژانویه 2018
پاسخ

سلام .پارت 17 مربوط به یک فیلم دیگه هست .اگر ممکنه درستش کنید

مجتبی
دوشنبه , 22 ژانویه 2018
پاسخ

تصحیح شد

v for ...
سه شنبه , 23 ژانویه 2018
پاسخ

یا حضرت خضر
۵۷ گیگ!!
اون وقت من فیلمارو ۴۸۰p دانلود میکنم

یک ایرانی
سه شنبه , 23 ژانویه 2018
پاسخ

58 گیگ. مگه سوئیسه

noshin
چهار شنبه , 24 ژانویه 2018
پاسخ

سلام خسته نباشین لطفا فیلم های HEVC 2160 HDR بیشتری بزارین

بهزاد
جمعه , 26 ژانویه 2018
پاسخ

درود بر شما
به سختی دانلود کردم + با دشواری بسیار یکیشون کردم بد تر از همه با potplayer امدم نگاه کنم هی قطع و وصل میشه به قولی ربپ میزنه!

چی کار کنم؟

رضا
جمعه , 26 ژانویه 2018
پاسخ

سلام، احتمال قوی سیستم شما کم میاره، همه ی برنامه های دیگه رو ببندین و پلیرهای دیگری رو هم تست کنین.

الیوت هندرسون
چهار شنبه , 14 فوریه 2018
پاسخ

فیلم 4kپللیر مخصوص خودش رو میخواد CyberLink PowerDVD 14 دانلود کن لذتشو ببر. ی خورده تو گوگل تحقیق کنی بهترین نتیجه رو میگیری. انصافن شما نمیدونید ک potplayer واسه 4k مناسب نیست. توانشو نداره ک پخش کنه

مجتبی
جمعه , 26 ژانویه 2018
پاسخ

دوست عزیز این نوع فیلم ها مخصوص tvهای 4k هست. یا اینکه اگه سیستم قوی دارید برای شما مناسب خواهد بود

شهرام عباسی
سه شنبه , 30 ژانویه 2018
پاسخ

سلام چطوری باید همش به هم بچسبونیم میشه ی اموزش بدی بعد دانلود چکارکنیم ممنونت میشم

مجتبی
سه شنبه , 30 ژانویه 2018
پاسخ

سلام. اگه وینرر دارید، روی part1 راست کلیک کنید و گزینه extract here را بزنید.

تبلیغات
bachehayeaseman
مطالب محبوب

تمامی مطالب را از کانال تلگرام دنبال کنید!